cleverte
» » Eye To Eye - Clean Slate

Eye To Eye - Clean Slate Download

Eye To Eye - Clean Slate Download
Title:
Clean Slate
Performer:
Eye To Eye
Style:
Pop Rock
Released:
2005
Catalog:
5060108440004
Country:
UK
MP3 album size:
2711 mb
FLAC album size:
1392 mb
Genre:
Label:
12th Street Records

Tracklist


1Only Ever Now4:31
2Scenes By A Wishing Well5:17
3Mother Of A Family4:31
4Last4:02
5One So Unsuspecting5:07
6Shoes4:58
7Love Is Not Blind4:47
8How Sweet It Was3:17
9Blue Dragonfly5:02
10Clean Slate4:51
11Fly Now3:50


Credits


  • Arranged By [Horns]Julian Marshall
  • Art Direction, DesignChristine Baczewska
  • BassIvan Bodley
  • Drums, PercussionMartin Ditcham
  • Engineer [Assistant]Johnnie Wydrycs, Joyaa, Robert Lemanowicz
  • GuitarJohn Putnam
  • HornsThe Uptown Horns (tracks: 1, 3)
  • KeyboardsJulian Marshall
  • Mastered ByGreg Calbi
  • Photography By [Portraits]Nicky Johnson
  • ProducerEye To Eye , Rhett Davies
  • Recorded ByGavin Jurkschat
  • Recorded By, Mixed ByRon Allaire
  • Vocals, GuitarDeborah Berg


Barcodes


  • Barcode (Text): 5 060108-440004
  • Matrix / Runout: R51008 5060108440004
  • Mastering SID Code: IFPILD02
  • Mould SID Code: IFPI 5J54


Companies


  • Phonographic Copyright (p) – Eye To Eye
  • Copyright (c) – Eye To Eye
  • Published By – Windswept Music (London) Ltd.
  • Recorded At – Skyline Studios
  • Recorded At – Blue In Green Studios
  • Mastered At – Sterling Sound

Reviews:
  • Rexfire
foobar2000 1.4.4 / Dynamic Range Meter 1.1.1
log date: 2019-05-26 16:59:58

--------------------------------------------------------------------------------
Analyzed: Eye To Eye / Clean Slate
--------------------------------------------------------------------------------

DR Peak RMS Duration Track
--------------------------------------------------------------------------------
DR7 -0.11 dB -8.54 dB 5:08 01-Scenes By A Wishing Well
DR7 -0.11 dB -8.81 dB 4:48 02-Love Is Not Blind
DR7 -0.11 dB -9.07 dB 4:03 03-Last
DR9 -0.11 dB -11.53 dB 5:03 04-Blue Dragonfly
DR8 -0.01 dB -9.59 dB 4:59 05-Shoes
DR8 -0.11 dB -10.70 dB 3:52 06-Fly Now
DR8 -0.11 dB -10.11 dB 4:32 07-Mother Of A Family
DR7 -0.11 dB -10.05 dB 4:31 08-Only Ever Now
DR8 -0.11 dB -10.93 dB 3:18 09-How Sweet It Was
DR8 -0.11 dB -10.64 dB 5:10 10-One So Unsuspecting
DR8 -0.11 dB -9.67 dB 4:54 11-Clean Slate
--------------------------------------------------------------------------------

Number of tracks: 11
Official DR value: DR8

Samplerate: 44100 Hz
Channels: 2
Bits per sample: 16
Bitrate: 907 kbps
Codec: ALAC
================================================================================