cleverte
» » Ace - Five-A-Side+bonus track/Time For Another/No Strings

Ace - Five-A-Side+bonus track/Time For Another/No Strings Download

Ace - Five-A-Side+bonus track/Time For Another/No Strings Download
Title:
Five-A-Side+bonus track/Time For Another/No Strings
Performer:
Ace
Style:
Pub Rock
Released:
2018
Catalog:
BGOCD1360
Country:
UK
MP3 album size:
2943 mb
FLAC album size:
2918 mb
Genre:
Label:
BGO Records

Tracklist


1Gleaming In The Gloom
2No Future In Your Eyes
3Time Ain't Long
4Know How It Feels
5Tounge Tied
6 Time For Another (Continued)
7The Real Feeling
8 Time For Another
9Sniffin' About
10 Five-A Side
11Tastes Like A Fish
12Why Did You Leave Me
13Rock And Roll Runaway
14C'est La Vie
15Rock And Roll Singer
16Sail On My Brother
17Satellite
1824 Hours
19This Is What You Find
20Ain't Gonna Stand For This No More
21I Think It's Gonna Last
22Movin'
23Message To You
24 Bonus Track
25Crazy World
26Does It Hurt You
27Let's Hang On
28 No Strings
29You Can't Lose
30How Long
31I'm Not Takin' It Out On You
32Why
33I'm A Man
34So Sorry Baby
35You're All That I Need
36Found Out The Hard Way


Credits


  • Liner NotesJohn Tobler
  • Remastered ByAndrew Thompson


Notes


2CD compilation w/slipcase and 20 page glossy booklet

Tracks 1-1 through 1-10 from 1974 album 'Five-A-Side'
Track 1-11 B-side from 'Five-A-Side' sessions
Tracks 1-12 through 1-16 and 2-1 through 2-5 from 1975 album 'Time for Another'
Tracks 2-6 through 2-15 from 1977 album 'No Strings'


Barcodes


  • Barcode (Text): 5 017261 213600
  • SPARS Code: AAD


Companies


  • Phonographic Copyright (p) – Cavalcade Records Ltd.
  • Copyright (c) – BGO Records
  • Licensed From – BMG Rights Management (UK) Limited
  • Distributed By – Proper Music Distribution
  • Remastered At – Sound Performance

Reviews:
  • Faell
foobar2000 1.4.4 / Dynamic Range Meter 1.1.1
log date: 2020-03-09 20:14:51

--------------------------------------------------------------------------------
Analyzed: Ace / Five-A-Side+bonus track/Time For Another/No Strings [UK BGO 2018 CD]
--------------------------------------------------------------------------------

DR Peak RMS Duration Track
--------------------------------------------------------------------------------
DR11 -0.10 dB -12.44 dB 4:46 01-Sniffin' About
DR12 -0.10 dB -13.55 dB 3:08 02-Rock And Roll Runaway
DR11 -0.10 dB -12.97 dB 3:24 03-How Long
DR12 -0.10 dB -13.53 dB 2:24 04-The Real Feeling
DR12 -0.10 dB -12.99 dB 4:03 05-24 Hours
DR12 -0.10 dB -13.34 dB 3:19 06-Why
DR12 -0.10 dB -13.72 dB 3:54 07-Time Ain't Long
DR12 -0.10 dB -15.17 dB 3:28 08-Know How It Feels
DR12 -0.10 dB -12.75 dB 3:31 09-Satellite
DR12 -0.10 dB -12.98 dB 3:55 10-So Sorry Baby
DR13 -0.10 dB -15.20 dB 2:59 11-Tastes Like A Fish (Bonus Track)
DR10 -0.60 dB -12.97 dB 4:42 12-I Think It's Gonna Last
DR11 -0.60 dB -13.34 dB 3:56 13-I'm A Man
DR10 -0.60 dB -13.79 dB 4:40 14-Tongue Tied
DR10 -0.60 dB -12.94 dB 4:25 15-Does It Hurt You
DR11 -0.60 dB -12.35 dB 4:22 16-Message To You
DR10 -0.36 dB -12.90 dB 3:29 01-No Future In Your Eyes
DR11 -0.50 dB -13.74 dB 3:58 02-This Is What You Find
DR10 -0.50 dB -12.51 dB 4:28 03-You Can't Lose
DR10 -0.50 dB -12.35 dB 4:35 04-Sail On My Brother
DR10 -0.50 dB -12.07 dB 4:09 05-Ain't Gonna Stand For This No Nore
DR12 -0.50 dB -14.41 dB 5:00 06-Rock And Roll Singer
DR10 -0.50 dB -13.09 dB 3:45 07-You're All That I Need
DR11 -0.50 dB -14.09 dB 3:32 08-Crazy World
DR11 -0.50 dB -13.49 dB 3:33 09-I'm Not Talkin' It Out On You
DR11 -0.50 dB -13.86 dB 4:29 10-Movin'
DR13 -0.50 dB -15.00 dB 5:39 11-Gleaming In The Gloom
DR10 -0.50 dB -12.72 dB 3:13 12-Let's Hang On
DR13 -0.50 dB -15.81 dB 3:57 13-Why Did You Leave Me
DR12 -0.50 dB -14.56 dB 4:00 14-Found Out The Hard Way
DR12 -0.50 dB -14.45 dB 3:21 15-C'est La Vie
--------------------------------------------------------------------------------

Number of tracks: 31
Official DR value: DR11

Samplerate: 44100 Hz
Channels: 2
Bits per sample: 16
Bitrate: 813 kbps
Codec: ALAC
================================================================================